中国龙珠论坛

 找回密码
 加入龙论

QQ登录

只需一步,快速开始

扫一扫,访问微社区

查看: 10603|回复: 20

[资讯资料] [百度不删][英文字幕/英日音轨]龙珠Z-悟空之父巴达克[蓝光原档-MKV][8.55G]

  [复制链接]
发表于 2013-9-28 10:21 | 显示全部楼层 |阅读模式




小水管从PT脱下来的,传上来也花了几天- -还请支持一个……

剧情介绍  
悟空的父亲,和悟空长得一模一样,只是他的左边脸颊有一道疤痕。他是TV特别版1《巴多克,悟空之父》的主角。在为弗利沙征服了又一个行星后,他被那个星球唯一的幸存者打中了后脑,从此拥有了预知未来的能力。他预知弗利沙将要消灭所有的赛亚人,但其他的赛亚人并不相信他。他只好独自去攻击弗利沙,但是他根本就不是弗利沙的对手。弗利沙用一个巨大的能量弹毁灭了贝吉塔行星和所有的赛亚人(事实上,还有几个赛亚人幸存)。他也被弗利沙的能量弹杀死了,但是,在临死之前,他看到了他的儿子卡卡罗特将会杀死弗利沙。
General
Complete name                    : F:\Dragon.Ball.Z.Bardock.The.Father.of.Goku.1990.BluRay.Remux.1080p.AVC.DTS-HD.MA.5.1-decibeL.mkv
Format                           : Matroska
File size                        : 8.56 GiB
Duration                         : 47mn 45s
Overall bit rate                 : 25.7 Mbps
Movie name                       : Dragon.Ball.Z.Bardock.The.Father.of.Goku.1990.BluRay.Remux.1080p.AVC.DTS-HD.MA.5.1-decibeL
Encoded date                     : UTC 2013-08-24 05:50:17
Writing application              : mkvmerge v6.3.0 ('You can't stop me!') built on Jun 28 2013 20:09:41
Writing library                  : libebml v1.3.0 + libmatroska v1.4.0

Video
ID                               : 1
Format                           : AVC
Format/Info                      : Advanced Video Codec
Format profile                   : High@L4.1
Format settings, CABAC           : Yes
Format settings, ReFrames        : 4 frames
Muxing mode                      : Container profile=Unknown@4.1
Codec ID                         : V_MPEG4/ISO/AVC
Duration                         : 47mn 45s
Width                            : 1 920 pixels
Height                           : 1 080 pixels
Display aspect ratio             : 16:9
Frame rate                       : 23.976 fps
Standard                         : NTSC
Color space                      : YUV
Chroma subsampling               : 4:2:0
Bit depth                        : 8 bits
Scan type                        : Progressive
Title                            : MPEG-4 AVC Video / 21972 kbps / 1080p / 23.976 fps / 16:9 / High Profile 4.1
Color primaries                  : BT.709-5, BT.1361, IEC 61966-2-4, SMPTE RP177
Transfer characteristics         : BT.709-5, BT.1361
Matrix coefficients              : BT.709-5, BT.1361, IEC 61966-2-4 709, SMPTE RP177

Audio #1
ID                               : 2
Format                           : DTS
Format/Info                      : Digital Theater Systems
Format profile                   : MA
Codec ID                         : A_DTS
Duration                         : 47mn 45s
Bit rate mode                    : Variable
Channel(s)                       : 6 channels
Channel positions                : Front: L C R, Side: L R, LFE
Sampling rate                    : 48.0 KHz
Bit depth                        : 16 bits
Title                            : DTS-HD Master Audio / English with Japanese Music / 5.1 / 48 kHz / 2373 kbps / 16-bit

Audio #2
ID                               : 3
Format                           : AC-3
Format/Info                      : Audio Coding 3
Mode extension                   : CM (complete main)
Codec ID                         : A_AC3
Duration                         : 47mn 45s
Bit rate mode                    : Constant
Bit rate                         : 640 Kbps
Channel(s)                       : 2 channels
Channel positions                : Front: L R
Sampling rate                    : 48.0 KHz
Stream size                      : 219 MiB (2%)
Title                            : Dolby Digital Audio / English with U.S. Music / 640 kbps / 2.0 / 48 kHz / 640 kbps

Audio #3
ID                               : 4
Format                           : AC-3
Format/Info                      : Audio Coding 3
Mode extension                   : CM (complete main)
Codec ID                         : A_AC3
Duration                         : 47mn 45s
Bit rate mode                    : Constant
Bit rate                         : 640 Kbps
Channel(s)                       : 1 channel
Channel positions                : Front: C
Sampling rate                    : 48.0 KHz
Stream size                      : 219 MiB (2%)
Title                            : Dolby Digital Audio / Japanese / 640 kbps / 1.0 / 48 kHz / 640 kbps
Language                         : Japanese

Text
ID                               : 5
Format                           : PGS
Codec ID                         : S_HDMV/PGS
Codec ID/Info                    : The same subtitle format used on BDs/HD-DVDs

Menu
00:00:00.000                     : en:00:00:00.000
00:01:47.816                     : en:00:01:47.816
00:02:56.968                     : en:00:02:56.968
00:04:34.900                     : en:00:04:34.900
00:08:14.452                     : en:00:08:14.452
00:12:29.666                     : en:00:12:29.666
00:17:09.237                     : en:00:17:09.237
00:23:13.309                     : en:00:23:13.309
00:34:41.955                     : en:00:34:41.955
00:40:43.566                     : en:00:40:43.566
00:44:08.271                     : en:00:44:08.271
00:46:04.845                     : en:00:46:04.845

添加恢复

购买主题 已有 82 人购买  本主题需向作者支付 5 元龙珠币 才能浏览
发表于 2013-9-28 11:35 | 显示全部楼层
额- -U2里的吧。。。PT里的一些极致的龙珠资源没必要拖出来分享到外网,比如蓝光原盘的龙珠改、美版剧场版什么的。

发表于 2013-9-28 15:55 | 显示全部楼层
8G多,想了想,还是支持下吧

发表于 2013-9-28 19:56 | 显示全部楼层
好物要顶,默认音轨看样子是英?虽然不怎么有好感但是挖过来辛苦了~

 楼主| 发表于 2013-9-28 20:06 | 显示全部楼层
哎哟哥哥 发表于 2013-9-28 11:35
额- -U2里的吧。。。PT里的一些极致的龙珠资源没必要拖出来分享到外网,比如蓝光原盘的龙珠改、美版剧场版什 ...

不是U2的
没有U2的号。。。而且龙珠改的原盘也分日版和美版
对比如可以看Amazon上的

发表于 2013-9-29 00:10 | 显示全部楼层
感谢楼主分享!已购买主题。。。。。

发表于 2013-10-2 08:02 | 显示全部楼层
好强大的资源啊,感谢楼主!!

发表于 2015-4-14 20:30 | 显示全部楼层
分享的文件已经被取消了

发表于 2015-4-15 07:42 | 显示全部楼层
链接木有了。。。。。!!!!!!!!!!!

发表于 2015-5-4 11:14 | 显示全部楼层
楼主把链接补上吧!!!

发表于 2015-5-6 07:44 | 显示全部楼层
搞什么,5个龙珠币,竟然没有链接了

发表于 2015-5-7 18:34 | 显示全部楼层
本帖最后由 撒殿 于 2015-5-7 18:36 编辑

楼主,没下到百度已经删除了。。。TOT

发表于 2015-6-5 19:21 | 显示全部楼层
确实没有链接,楼主补上吧!


Απολλων于2015-6-5 19:21补充以下内容:

确实没有链接,楼主补上吧!

发表于 2015-6-18 09:53 | 显示全部楼层
最近出了好多都没看过啊

发表于 2015-6-27 08:02 | 显示全部楼层
没有啊!!!!!!

发表于 2015-7-18 15:50 | 显示全部楼层
       
8G多,想了想,还是支持下吧

发表于 2016-7-11 14:51 | 显示全部楼层
谢谢了

发表于 2017-2-17 18:50 | 显示全部楼层
楼主  链接已经过期了。。。。。已经购买了 请补上。

发表于 2017-8-3 23:30 | 显示全部楼层
之前在愛奇藝看了,再來看看藍光版

发表于 2017-10-26 10:22 | 显示全部楼层
好强大的资源,谢谢楼主分享

您需要登录后才可以回帖 登录 | 加入龙论

本版积分规则

龟仙屋动漫店| 手机版|Archiver|DBCN七龙珠网 (苏ICP备13043741号)

GMT+8, 2019-3-26 07:17 , Processed in 1.135801 second(s), 27 queries .

Powered by Discuz! X3.2

© 2003-2017 DragonBallCN.Com

快速回复 返回顶部 返回列表