中国龙珠论坛

 找回密码
 加入龙论666

QQ登录

只需一步,快速开始

查看: 2607|回复: 23

[影音区] 4K or 1080P

[复制链接]
发表于 2022-12-20 19:35 | 显示全部楼层 |阅读模式
2022-12-20 19-35-20.png


 楼主| 发表于 2022-12-20 19:36 | 显示全部楼层
不敢随便发链接 自己去找 。因为准备上映

发表于 2022-12-20 21:50 | 显示全部楼层
能下4K就最好4K了,各方面体验好点,还有HDR效果,不过下的时候要找修正版,因为看有人说东映官方碟有绿色偏色情况,1080P和4K版的都有这情况,贴吧有人发对比图了https://tieba.baidu.com/p/8192438370


发表于 2022-12-21 01:15 | 显示全部楼层
wejump 发表于 2022-12-20 19:36
不敢随便发链接 自己去找 。因为准备上映

你取了此2160P資源?

可說說內容無?

一、是原碟封MKV無?
二、有幾多條聲軌?聲格式是何?
三、有幾多條字軌?是何字?有日版原碟SUP字無?


发表于 2022-12-21 01:17 | 显示全部楼层
cp999999999 发表于 2022-12-20 21:50
能下4K就最好4K了,各方面体验好点,还有HDR效果,不过下的时候要找修正版,因为看有人说东映官方碟有绿色 ...

HDR是何格式?畫質會好些?
修色版畫質會好些?


发表于 2022-12-21 13:20 | 显示全部楼层
allpoogi 发表于 2022-12-21 01:17
HDR是何格式?畫質會好些?
修色版畫質會好些?

HDR是一种视觉显示效果,简单来说是让画面黑的地方黑,白的地方白,要显示HDR效果除了片源本身支持外,还得播放设备支持,画质不是说更好或更坏,单纯的在观感体验上会更好,显得更有层次。
修色版也不是画质好坏问题,只是让画面更正常罢了,因为原盘有偏色

发表于 2022-12-21 14:27 | 显示全部楼层
cp999999999 发表于 2022-12-21 13:20
HDR是一种视觉显示效果,简单来说是让画面黑的地方黑,白的地方白,要显示HDR效果除了片源本身支持外,还 ...

多謝!

原來HDR是潤色。

我不是好識辨色,你認為修色版好過原版無?
應取修色版好過原版?


发表于 2022-12-21 21:50 | 显示全部楼层
allpoogi 发表于 2022-12-21 14:27
多謝!

原來HDR是潤色。

个人观感修色版好过原版,因为原版确实有偏绿情况,应该是东映的失误,具体你可以看我发的那链接,那里有人发帖对比了,你看一下就知道

发表于 2022-12-21 21:52 | 显示全部楼层
好,知了。

多謝幫手!

 楼主| 发表于 2022-12-22 01:05 | 显示全部楼层
本帖最后由 wejump 于 2022-12-22 19:27 编辑
cp999999999 发表于 2022-12-20 21:50
能下4K就最好4K了,各方面体验好点,还有HDR效果,不过下的时候要找修正版,因为看有人说东映官方碟有绿色 ...

这么恐怖 ,官方也翻车
去哪里下载修改

 楼主| 发表于 2022-12-22 01:09 | 显示全部楼层
allpoogi 发表于 2022-12-21 21:52
好,知了。

多謝幫手!

不知道 ,字幕不知道,反正是简日。音轨三条,一条杜比一条评论另外是普通音xiao

发表于 2022-12-22 02:37 | 显示全部楼层
wejump 发表于 2022-12-22 01:09
不知道 ,字幕不知道,反正是简日。音轨三条,一条杜比一条评论另外是普通音xiao

好,知到!

多謝解答!


发表于 2022-12-23 01:01 | 显示全部楼层
看HDR片源首先必须有硬件支持 比如支持HDR10的显示器或者电视机  只有显示设备“硬解”才是真正的HDR色彩 前提播放器必须设置好HDR直通
如果没有显示设备那只能靠显卡HDR转SDR  那个色彩渣渣还不如看1080p

发表于 2022-12-23 20:42 | 显示全部楼层
cp999999999 发表于 2022-12-20 21:50
能下4K就最好4K了,各方面体验好点,还有HDR效果,不过下的时候要找修正版,因为看有人说东映官方碟有绿色 ...

我看過資料,原來2160P只是東映放大而成,
不是以2160P製作。

當然,不一定是由1080P放大,
或會是由高於1080P放大,
畫質或仍會好過1080P版。

发表于 2022-12-23 20:44 | 显示全部楼层
SHIN-GOUKI 发表于 2022-12-23 01:01
看HDR片源首先必须有硬件支持 比如支持HDR10的显示器或者电视机  只有显示设备“硬解”才是真正的HDR色彩  ...

暫時未會換螢幕。

发表于 2022-12-23 21:56 | 显示全部楼层
allpoogi 发表于 2022-12-23 20:42
我看過資料,原來2160P只是東映放大而成,
不是以2160P製作。

肯定不是了,目前日本业内完全以4K标准制作的就只有一部短片,Sol Levante,4分多钟就几十个G,其他的4K剧场版都不是以4K标准制作的,只是单纯的以4K碟发售,当然有的4K是有进行一定修复的,比如阿基拉的4K版

发表于 2022-12-24 00:37 | 显示全部楼层
4K下好了  只有一条音轨 杜比TrueHD.7.1

General
Unique ID                   : 90858189188327572238332201000305136420 (0x445AA695EAE3AD754160F9880CAF9324)
Complete name               : G:\Dragon.Ball.Super.Super.Hero.2022.2160p.JPN.UHD.Blu-ray.HEVC.TrueHD.7.1-iPFS.Redir\Dragon.Ball.Super.Super.Hero.2022.2160p.JPN.UHD.Blu-ray.HEVC.TrueHD.7.1-iPFS.Redir.mkv
Format                      : Matroska
Format version              : Version 4
File size                   : 36.8 GiB
Duration                    : 1 h 39 min
Overall bit rate mode       : Variable
Overall bit rate            : 52.8 Mb/s
Movie name                  : 『ドラゴンボール超 スーパーヒーロー』4K ULTRA HD Blu-ray
Encoded date                : UTC 2022-12-20 00:18:27
Writing application         : mkvmerge v71.1.0 ('Fortitude') 64-bit
Writing library             : libebml v1.4.4 + libmatroska v1.7.1
Cover                       : Yes
Attachments                 : cover.jpg

Video #1
ID                          : 1
ID in the original source m : 4113 (0x1011)
Format                      : HEVC
Format/Info                 : High Efficiency Video Coding
Format profile              : Main 10@L5.1@High
HDR format                  : SMPTE ST 2086, HDR10 compatible
Codec ID                    : V_MPEGH/ISO/HEVC
Duration                    : 1 h 39 min
Bit rate                    : 38.8 Mb/s
Width                       : 3 840 pixels
Height                      : 2 160 pixels
Display aspect ratio        : 16:9
Frame rate mode             : Constant
Frame rate                  : 23.976 (24000/1001) FPS
Color space                 : YUV
Chroma subsampling          : 4:2:0 (Type 2)
Bit depth                   : 10 bits
Bits/(Pixel*Frame)          : 0.195
Stream size                 : 27.0 GiB (73%)
Default                     : Yes
Forced                      : No
Color range                 : Limited
Color primaries             : BT.2020
Transfer characteristics    : PQ
Matrix coefficients         : BT.2020 non-constant
Mastering display color pri : BT.2020
Mastering display luminance : min: 0.0001 cd/m2, max: 1000 cd/m2
Maximum Content Light Level : 996 cd/m2
Maximum Frame-Average Light : 996 cd/m2
Original source medium      : Blu-ray

Video #2
ID                          : 2
ID in the original source m : 4117 (0x1015)
Format                      : HEVC
Format/Info                 : High Efficiency Video Coding
Format profile              : Main 10@L5.1@High
HDR format                  : SMPTE ST 2086, HDR10 compatible
Codec ID                    : V_MPEGH/ISO/HEVC
Duration                    : 1 h 39 min
Bit rate                    : 8 811 kb/s
Width                       : 1 920 pixels
Height                      : 1 080 pixels
Display aspect ratio        : 16:9
Frame rate mode             : Constant
Frame rate                  : 23.976 (24000/1001) FPS
Color space                 : YUV
Chroma subsampling          : 4:2:0 (Type 2)
Bit depth                   : 10 bits
Bits/(Pixel*Frame)          : 0.177
Stream size                 : 6.14 GiB (17%)
Default                     : Yes
Forced                      : No
Color range                 : Limited
Color primaries             : BT.2020
Transfer characteristics    : PQ
Matrix coefficients         : BT.2020 non-constant
Mastering display color pri : BT.2020
Mastering display luminance : min: 0.0001 cd/m2, max: 1000 cd/m2
Original source medium      : Blu-ray

Audio
ID                          : 3
ID in the original source m : 4352 (0x1100)
Format                      : MLP FBA 16-ch
Format/Info                 : Meridian Lossless Packing FBA with 16-channel presentation
Commercial name             : Dolby TrueHD with Dolby Atmos
Codec ID                    : A_TRUEHD
Duration                    : 1 h 39 min
Bit rate mode               : Variable
Bit rate                    : 5 173 kb/s
Maximum bit rate            : 9 492 kb/s
Channel(s)                  : 8 channels
Channel layout              : L R C LFE Ls Rs Lb Rb
Sampling rate               : 48.0 kHz
Frame rate                  : 1 200.000 FPS (40 SPF)
Compression mode            : Lossless
Stream size                 : 3.61 GiB (10%)
Language                    : Japanese
Default                     : Yes
Forced                      : No
Original source medium      : Blu-ray
Number of dynamic objects   : 15
Bed channel count           : 1 channel
Bed channel configuration   : LFE

Menu
00:00:00.000                : en:第 01 章
00:05:04.762                : en:第 02 章
00:13:12.208                : en:第 03 章
00:18:26.605                : en:第 04 章
00:21:45.804                : en:第 05 章
00:28:48.893                : en:第 06 章
00:34:41.704                : en:第 07 章
00:38:37.481                : en:第 08 章
00:43:00.828                : en:第 09 章
00:48:36.246                : en:第 10 章
00:53:31.750                : en:第 11 章
00:58:08.776                : en:第 12 章
01:02:04.887                : en:第 13 章
01:07:59.200                : en:第 14 章
01:15:56.426                : en:第 15 章
01:20:40.043                : en:第 16 章
01:25:02.889                : en:第 17 章
01:28:27.051                : en:第 18 章
01:34:05.723                : en:第 19 章
01:38:05.963                : en:第 20 章

发表于 2022-12-24 02:35 | 显示全部楼层
SHIN-GOUKI 发表于 2022-12-24 00:37
4K下好了  只有一条音轨 杜比TrueHD.7.1

General

不是,只是發佈者刪去了某些軌。

實際有:
畫軌--1)2160P 2)1080P
聲軌--1)7.1TrueHD 2)5.1AC-3 3)2.0LPCM
字軌--1)日字SUP


发表于 2022-12-27 16:56 | 显示全部楼层
SHIN-GOUKI 发表于 2022-12-24 00:37
4K下好了  只有一条音轨 杜比TrueHD.7.1

General

不好意思,我誤會了。

我以為你說原碟只得一音軌,原來你是指手上之檔。


发表于 2023-11-4 14:12 | 显示全部楼层
你好 请问ova 归来悟空的伙伴在哪里可以下载么

您需要登录后才可以回帖 登录 | 加入龙论666

本版积分规则

手机版|Archiver|DBCN七龙珠网 (苏ICP备13043741号)

GMT+8, 2024-6-15 03:05 , Processed in 1.060448 second(s), 20 queries .

Powered by Discuz! X3.4

© 2003-2022 DragonBallCN.Com

快速回复 返回顶部 返回列表